rarbg torrents
  Guest (Login)TorrentsBox officeCatalogTop 10News

View all
TV Shows
Box Office
New index


Torrent: Wrath.Of.The.Titans.2012.720P.TS.READNFO.XviD.AC3-26K




Perseus braves the treacherous underworld to rescue his father, Zeus, captured by his son, Ares, and brother Hades who unleash the ancient Titans upon the world.

video-own hd files
audio-illumanti/littlebird thnxs

Reason for READNFO... well 1st off got the HD Cam into 3 pieces but was still missing a lil
so used the russian release to cut in the missing pieces and fix som of the camera movement and sum blur..

so had the thing in quiet a few pieces to fix all properly adjusted everything under the sun
then just synced up littlebirds LiNE to the encode.... enjoy all..
may work on a V2 using the russian vid as main
and substitute parts of arabic cam into it... we will see im kinda tired of this movie right now...lol

included 2 samples one of light scenes and dark scenes. enjoy


To all the people who have helped me you know who you are

Anything to offer email us @: 26k@hushmail.me

ID                                       : 0
Format                                   : MPEG-4 Visual
Format profile                           : Advanced Simple@L5
Format settings, BVOP                    : 2
Format settings, QPel                    : No
Format settings, GMC                     : No warppoints
Format settings, Matrix                  : Default (H.263)
Codec ID                                 : XVID
Codec ID/Hint                            : XviD
Duration                                 : 1h 30mn
Bit rate                                 : 2 298 Kbps
Width                                    : 1 280 pixels
Height                                   : 518 pixels
Display aspect ratio                     : 2.471
Frame rate                               : 25.000 fps
Color space                              : YUV
Chroma subsampling                       : 4:2:0
Bit depth                                : 8 bits
Scan type                                : Progressive
Compression mode                         : Lossy
Bits/(Pixel*Frame)                       : 0.139
Stream size                              : 1.45 GiB (88%)
Writing library                          : XviD 64

ID                                       : 1
Format                                   : AC-3
Format/Info                              : Audio Coding 3
Mode extension                           : CM (complete main)
Codec ID                                 : 2000
Duration                                 : 1h 30mn
Bit rate mode                            : Constant
Bit rate                                 : 320 Kbps
Channel(s)                               : 2 channels
Channel positions                        : Front: L R
Sampling rate                            : 44.1 KHz
Bit depth                                : 16 bits
Compression mode                         : Lossy
Stream size                              : 207 MiB (12%)
Alignment                                : Aligned on interleaves
Interleave, duration                     : 70 ms (1.74 video frames)
Interleave, preload duration             : 208 ms
Title                                    : audio


Thank you smallz for banner!
Wrath.Of.The.Titans.2012.720P.TS.READNFO.XviD.AC3-26KPlay trailer

Rating: 2.6/5 (13 votes cast)

Size:1.73 GB
Show/Hide Files:
9 files
Added:2012-04-03 19:12:48
Title:Wrath of the Titans (2012)
IMDB Rating:5.8/10 Updated : 2015-08-31
Rotten Rating:4.4/10
RottenTomatoes: 25% 49%
Genres:Action , Adventure , Fantasy
Actors:Sam Worthington , Liam Neeson , Rosamund Pike , Ralph Fiennes , Édgar Ramírez , Toby Kebbell , Bill Nighy , Danny Huston , John Bell ,
Lily James , Alejandro Naranjo , Freddy Drabble , Kathryn Carpenter , Matt Milne , Kett Turton
Director:Jonathan Liebesman
Plot:A decade after his heroic defeat of the monstrous Kraken| Perseus-the demigod son of Zeus-is attempting to live a quieter life as a village fisherman and the sole
parent to his 10-year old son| Helius. Meanwhile| a struggle for supremacy rages between the gods and the Titans. Dangerously weakened by humanity's lack of
devotion| the gods are losing control of the imprisoned Titans and their ferocious leader| Kronos| father of the long-ruling brothers Zeus| Hades and Poseidon. The
triumvirate had overthrown their powerful father long ago| leaving him to rot in the gloomy abyss of Tartarus| a dungeon that lies deep within the cavernous
underworld. Perseus cannot ignore his true calling when Hades| along with Zeus' godly son| Ares (Edgar Ramírez)| switch loyalty and make a deal with Kronos to
capture Zeus. The Titans' strength grows stronger as Zeus' remaining godly powers are siphoned| and hell is unleashed on earth. Enlisting the help of the warrior
Queen Andromeda (Rosamund Pike)| ...
Rotten Plot:Its 3D effects are an improvement over its predecessor's, but in nearly every other respect, Wrath of the Titans fails to improve upon the stilted acting, wooden dialogue, and chaos-driven plot of the franchise's first installment.
Tags:Wrath The Titans 2012 720P READNFO XviD AC3 26K
Release name:Wrath.Of.The.Titans.2012.720P.TS.READNFO.XviD.AC3-26K

SUPPORT : support@rarbg.com FAQ DMCA : spam@rarbg.com DMCA INFO HERE : DMCA Info

Wed, 07 Oct 2015 02:09:54 +0200

gina unforgettable S "Woodman Castin Victoria Roxx I Spy

Aff : torrentz.eu thepiratebay.se bt-chat.com kickass.to
Powered by hamsters 1.0
By using this site you agree to and accept our user agreement. If you havent read the user agreement please do so here